<?xml version="1.0" standalone="no"?>
<!DOCTYPE svg PUBLIC "-//W3C//DTD SVG 1.1//EN" "http://www.w3.org/Graphics/SVG/1.1/DTD/svg11.dtd" >
<svg xmlns="http://www.w3.org/2000/svg">
<metadata>Generated by IcoMoon</metadata>
<defs>
<font id="wpcafe" horiz-adv-x="1024">
<font-face units-per-em="1024" ascent="960" descent="-64" />
<missing-glyph horiz-adv-x="1024" />
<glyph unicode="&#x20;" horiz-adv-x="512" d="" />
<glyph unicode="&#xe900;" glyph-name="settings-1" horiz-adv-x="1092" d="M80.276 654.667h921.264c45.875 0 80.278-38.226 80.278-80.278v-558.111c0-45.872-38.226-80.275-80.278-80.275h-921.264c-45.872 0-80.276 38.226-80.276 80.275v558.111c0 45.874 34.404 80.278 80.276 80.278zM225.536 926.067v0zM133.792 792.273h814.231zM225.537 960h630.742v-67.853h-630.742v67.853zM99.867 792.28c0 18.737 15.189 33.926 33.926 33.926h814.23c18.739 0 33.929-15.189 33.929-33.926s-15.189-33.926-33.929-33.926h-814.23c-18.737 0-33.926 15.189-33.926 33.926z" />
<glyph unicode="&#xe901;" glyph-name="settings-2" horiz-adv-x="1126" d="M363.991 302.186h594.227c14.691 0 27.628 9.646 31.577 23.9l131.56 460.47c2.854 9.867 0.877 20.611-5.26 28.944-6.141 8.333-16.009 13.156-26.313 13.156h-801.659l-23.462 105.908c-3.509 14.691-16.884 25.436-32.233 25.436h-199.537c-18.2 0-32.891-14.691-32.891-32.891s14.691-32.891 32.891-32.891h173.225l118.845-534.586c-34.864-15.128-59.423-49.992-59.423-90.559 0-54.378 44.293-98.673 98.671-98.673h594.227c18.2 0 32.891 14.691 32.891 32.891s-14.691 32.891-32.891 32.891h-594.446c-18.2 0-32.891 14.691-32.891 32.891s14.691 33.113 32.891 33.113zM331.1 34.676c0-54.378 44.291-98.669 98.673-98.669 54.378 0 98.673 44.291 98.673 98.669 0 54.381-44.295 98.673-98.673 98.673-54.381 0-98.673-44.291-98.673-98.673zM892.436-63.993c-54.381 0-98.673 44.291-98.673 98.669 0 54.381 44.291 98.673 98.673 98.673 54.378 0 98.669-44.291 98.669-98.673 0-54.378-44.291-98.669-98.669-98.669z" />
<glyph unicode="&#xe902;" glyph-name="settings-3" d="M754.347 475.3c-150.187 0-269.653-119.467-269.653-269.653s119.467-269.653 269.653-269.653c150.187 0 269.653 119.467 269.653 269.653s-119.467 269.653-269.653 269.653zM873.813 174.927h-119.467c-17.067 0-30.72 13.653-30.72 30.72v119.467c0 17.067 13.653 30.72 30.72 30.72s30.72-13.653 30.72-30.72v-88.747h88.747c17.067 0 30.72-13.653 30.72-30.72s-13.653-30.72-30.72-30.72zM962.56 867.847c0 17.067-13.653 30.72-30.72 30.72h-150.187v-88.747c0-17.067-13.653-30.72-30.72-30.72s-30.72 13.653-30.72 30.72v88.747h-119.467v-88.747c0-17.067-13.653-30.72-30.72-30.72s-30.72 13.653-30.72 30.72v88.747h-119.467v-88.747c0-17.067-13.653-30.72-30.72-30.72s-30.72 13.653-30.72 30.72v88.747h-116.053v-88.747c0-17.067-13.653-30.72-30.72-30.72s-30.72 13.653-30.72 27.307v92.16h-150.187c-17.067 0-30.72-13.653-30.72-30.72v-150.187h962.56v150.187zM450.56 359.26h6.827c10.24 20.48 23.893 40.96 37.547 61.44h-44.373c-17.067 0-30.72 13.653-30.72 30.72s13.653 30.72 30.72 30.72h61.44c13.653 0 23.893-6.827 27.307-17.067 58.027 47.787 133.12 78.507 211.627 78.507h-61.44c-17.067 0-30.72 13.653-30.72 30.72s13.653 30.72 30.72 30.72h61.44c17.067 0 30.72-13.653 30.72-30.72s-13.653-30.72-30.72-30.72c78.507 0 153.6-27.307 211.627-75.093v191.147h-962.56v-570.027c0-17.067 13.653-30.72 30.72-30.72h430.080c-23.893 44.373-37.547 95.573-37.547 150.187 0 34.133 6.827 64.853 13.653 95.573-10.24 6.827-13.653 13.653-13.653 23.893 0 17.067 13.653 30.72 27.307 30.72zM450.56 598.193h61.44c17.067 0 30.72-13.653 30.72-30.72s-13.653-30.72-30.72-30.72h-61.44c-17.067 0-30.72 13.653-30.72 30.72s17.067 30.72 30.72 30.72zM273.067 178.353h-61.44c-17.067 0-30.72 13.653-30.72 30.72s13.653 30.72 30.72 30.72h61.44c17.067 0 30.72-13.653 30.72-30.72s-13.653-30.72-30.72-30.72zM273.067 297.82h-61.44c-17.067 0-30.72 13.653-30.72 30.72s13.653 30.72 30.72 30.72h61.44c17.067 0 30.72-13.653 30.72-30.72s-13.653-30.72-30.72-30.72zM273.067 417.287h-61.44c-17.067 0-30.72 13.653-30.72 30.72s13.653 30.72 30.72 30.72h61.44c17.067 0 30.72-13.653 30.72-30.72s-13.653-30.72-30.72-30.72zM273.067 536.753h-61.44c-17.067 0-30.72 13.653-30.72 30.72s13.653 30.72 30.72 30.72h61.44c17.067 0 30.72-13.653 30.72-30.72s-13.653-30.72-30.72-30.72zM242.348 929.28c0 17.067-13.653 30.72-30.72 30.72s-30.72-13.653-30.72-30.72v-30.72h61.44v30.72zM423.257 929.28c0 17.067-13.653 30.72-30.72 30.72s-30.72-13.653-30.72-30.72v-30.72h61.44v30.72zM600.747 929.28c0 17.067-13.653 30.72-30.72 30.72s-30.72-13.653-30.72-30.72v-30.72h61.44v30.72zM781.657 929.28c0 17.067-13.653 30.72-30.72 30.72s-30.72-13.653-30.72-30.72v-30.72h61.44v30.72z" />
<glyph unicode="&#xe903;" glyph-name="settings-4" horiz-adv-x="1195" d="M935.253 843.947l-402.773-221.867c-13.653-6.827-30.72-6.827-40.96 0l-402.773 221.867c0-3.413-3.413-6.827-3.413-13.653v-512c0-23.893 20.48-44.373 40.96-44.373h385.707v-85.333h-385.707c-71.68 0-126.293 58.027-126.293 126.293v512c0 37.547 17.067 75.093 47.787 98.987 23.893 23.893 51.2 34.133 78.507 34.133h768c27.307 0 54.613-10.24 78.507-27.307 30.72-23.893 51.2-61.44 51.2-102.4v-211.627h-85.333v211.627c0 6.827 0 10.24-3.413 13.653zM1194.667 232.96c0-163.84-133.12-296.96-296.96-296.96s-296.96 133.12-296.96 296.96c0 163.84 133.12 296.96 296.96 296.96s296.96-129.707 296.96-296.96zM1010.347 178.347l-71.68 71.68v109.227h-85.333v-126.293c0-10.24 3.413-23.893 13.653-30.72l85.333-85.333 58.027 61.44z" />
<glyph unicode="&#xe904;" glyph-name="settings-5" d="M819.2 874.667c40.96 0 75.093-34.133 75.093-75.093v-71.68h-894.293v71.68c0 40.96 34.133 75.093 75.093 75.093h78.507v64.853c0 10.24 6.827 20.48 20.48 20.48h54.613c10.24 0 20.48-10.24 20.48-20.48v-64.853h150.187v64.853c0 10.24 10.24 20.48 20.48 20.48h54.613c10.24 0 20.48-10.24 20.48-20.48v-64.853h150.187v64.853c0 10.24 10.24 20.48 20.48 20.48h54.613c10.24 0 20.48-10.24 20.48-20.48v-64.853h78.507zM1010.347 116.907c-40.96 0-64.853-51.2-34.133-81.92 6.827-6.827 6.827-13.653 0-20.48l-30.72-30.72c-6.827-6.827-13.653-6.827-20.48 0-30.72 30.72-81.92 10.24-81.92-34.133 0-6.827-6.827-13.653-13.653-13.653h-44.373c-6.827 0-13.653 6.827-13.653 13.653 0 40.96-51.2 64.853-81.92 34.133-6.827-6.827-13.653-6.827-20.48 0l-30.72 30.72c-6.827 6.827-6.827 13.653 0 20.48 30.72 30.72 10.24 81.92-34.133 81.92-6.827 0-13.653 6.827-13.653 13.653v44.373c0 6.827 6.827 13.653 13.653 13.653 40.96 0 64.853 51.2 34.133 81.92-6.827 6.827-6.827 13.653 0 20.48l30.72 30.72c6.827 6.827 13.653 6.827 20.48 0 30.72-30.72 81.92-10.24 81.92 34.133 0 6.827 6.827 13.653 13.653 13.653h44.373c6.827 0 13.653-6.827 13.653-13.653 0-40.96 51.2-64.853 81.92-34.133 6.827 6.827 13.653 6.827 20.48 0l30.72-30.72c6.827-6.827 6.827-13.653 0-20.48-30.72-30.72-10.24-81.92 34.133-81.92 6.827 0 13.653-6.827 13.653-13.653v-44.373c0-6.827-6.827-13.653-13.653-13.653zM808.96 243.2c-51.2 0-92.16-40.96-92.16-92.16s40.96-92.16 92.16-92.16c51.2 0 92.16 40.96 92.16 92.16-3.413 51.2-44.373 92.16-92.16 92.16zM894.293 686.933h-894.293v-535.893c0-40.96 34.133-75.093 75.093-75.093h515.413c-23.893 6.827-40.96 27.307-40.96 54.613 0 13.653 0 27.307 0 44.373 0 30.72 23.893 54.613 54.613 54.613 6.827 0 6.827 6.827 3.413 10.24-20.48 20.48-20.48 58.027 0 78.507 10.24 10.24 20.48 20.48 30.72 30.72 20.48 20.48 58.027 20.48 78.507 0 3.413-3.413 10.24 0 10.24 3.413 0 30.72 23.893 54.613 54.613 54.613h44.373c30.72 0 54.613-23.893 54.613-54.613 0-6.827 6.827-6.827 10.24-3.413l3.413 337.92zM320.853 246.613c0 6.827 3.413 10.24 10.24 10.24h54.613c6.827 0 10.24-3.413 10.24-10.24v-54.613c0-6.827-3.413-10.24-10.24-10.24h-54.613c-6.827 0-10.24 3.413-10.24 10.24v54.613zM501.76 410.453c0 6.827 3.413 10.24 10.24 10.24h54.613c6.827 0 10.24-3.413 10.24-10.24v-54.613c0-6.827-3.413-10.24-10.24-10.24h-54.613c-6.827 0-10.24 3.413-10.24 10.24v54.613zM139.947 246.613c0 6.827 3.413 10.24 10.24 10.24h54.613c6.827 0 10.24-3.413 10.24-10.24v-54.613c0-6.827-3.413-10.24-10.24-10.24h-54.613c-6.827 0-10.24 3.413-10.24 10.24v54.613zM320.853 577.707c0 6.827 3.413 10.24 10.24 10.24h54.613c6.827 0 10.24-3.413 10.24-10.24v-54.613c0-6.827-3.413-10.24-10.24-10.24h-54.613c-6.827 0-10.24 3.413-10.24 10.24v54.613zM682.667 577.707c0 6.827 3.413 10.24 10.24 10.24h54.613c6.827 0 10.24-3.413 10.24-10.24v-54.613c0-6.827-3.413-10.24-10.24-10.24h-54.613c-6.827 0-10.24 3.413-10.24 10.24v54.613zM501.76 577.707c0 6.827 3.413 10.24 10.24 10.24h54.613c6.827 0 10.24-3.413 10.24-10.24v-54.613c0-6.827-3.413-10.24-10.24-10.24h-54.613c-6.827 0-10.24 3.413-10.24 10.24v54.613zM139.947 577.707c0 6.827 3.413 10.24 10.24 10.24h54.613c6.827 0 10.24-3.413 10.24-10.24v-54.613c0-6.827-3.413-10.24-10.24-10.24h-54.613c-6.827 0-10.24 3.413-10.24 10.24v54.613zM320.853 410.453c0 6.827 3.413 10.24 10.24 10.24h54.613c6.827 0 10.24-3.413 10.24-10.24v-54.613c0-6.827-3.413-10.24-10.24-10.24h-54.613c-6.827 0-10.24 3.413-10.24 10.24v54.613zM139.947 410.453c0 6.827 3.413 10.24 10.24 10.24h54.613c6.827 0 10.24-3.413 10.24-10.24v-54.613c0-6.827-6.827-10.24-10.24-10.24h-54.613c-6.827 0-10.24 3.413-10.24 10.24v54.613z" />
<glyph unicode="&#xe905;" glyph-name="icon-arrow-right" d="M512 960l-90.258-90.258 357.157-357.742h-778.898v-128h778.898l-357.157-357.742 90.258-90.258 512 512z" />
<glyph unicode="&#xe906;" glyph-name="customize" horiz-adv-x="1069" d="M244.248 564.922c0 0.122-0.001 0.267-0.001 0.412 0 83.092 67.36 150.452 150.452 150.452 65.496 0 121.218-41.852 141.88-100.271l0.325-1.053 183.281 183.281-87.597 87.975c-4.781 4.691-11.337 7.587-18.571 7.587s-13.79-2.896-18.575-7.591l-42.744-42.744c-20.687 11.845-44.62 21.844-69.829 28.759l-2.19 0.512v60.806c0 14.886-12.067 26.953-26.953 26.953v0h-117.192c-0.295 0.012-0.641 0.019-0.989 0.019-14.35 0-25.983-11.633-25.983-25.983 0-0.348 0.007-0.694 0.020-1.039l-0.002 0.050v-60.86c-27.398-7.427-51.331-17.426-73.557-30.077l1.539 0.806-42.748 42.748c-4.781 4.691-11.337 7.587-18.571 7.587s-13.79-2.896-18.575-7.591l0.004 0.004-82.207-81.991c-4.691-4.781-7.587-11.337-7.587-18.571s2.896-13.79 7.591-18.575l42.744-42.744c-11.845-20.687-21.844-44.62-28.759-69.829l-0.512-2.19h-61.992c-14.886 0-26.953-12.067-26.953-26.953v0-115.952c-0.012-0.295-0.019-0.641-0.019-0.989 0-14.35 11.633-25.983 25.983-25.983 0.348 0 0.694 0.007 1.039 0.020l-0.050-0.002h60.86c7.427-27.398 17.426-51.331 30.077-73.557l-0.806 1.539-42.748-42.748c-4.946-4.661-8.026-11.256-8.026-18.571s3.080-13.909 8.013-18.559l0.013-0.012 87.813-87.813 183.281 183.281c-59.146 19.044-101.19 73.588-101.19 137.952 0 0.528 0.003 1.056 0.008 1.583l-0.001-0.080zM340.74 265.097l401.147 401.147 172.71-172.71-401.147-401.147-172.71 172.71zM1058.015 687.613l-120.426 121.558c-6.557 6.783-15.738 10.994-25.902 10.994s-19.345-4.211-25.892-10.984l-78.767-78.767 173.362-173.362 78.811 78.811c6.17 6.598 9.959 15.491 9.959 25.268 0 10.374-4.266 19.752-11.139 26.475l-0.007 0.007zM232.012 155.236c-4.522-4.992-8.004-11.017-10.046-17.672l-0.088-0.333-36.009-156.328c-0.477-2.235-0.751-4.803-0.751-7.435 0-20.542 16.653-37.195 37.195-37.195 2.632 0 5.2 0.273 7.677 0.793l-0.242-0.043 156.328 36.009c7.198 1.399 13.386 5.019 17.979 10.106l0.025 0.028 45.012 45.012-172.23 172.068z" />
<glyph unicode="&#xe907;" glyph-name="details_icon" horiz-adv-x="1317" d="M0 228.549h585.177v146.274h-585.177zM0-64h585.177v146.274h-585.177zM0 521.177h585.177v146.274h-585.177zM0 960v-146.274h585.177v146.274zM731.451 960h585.177v-1024h-585.177z" />
<glyph unicode="&#xe908;" glyph-name="general_icon" horiz-adv-x="996" d="M878.811 397.875c2.052 14.783 3.224 31.863 3.224 49.218 0 0.329 0 0.658-0.001 0.987v-0.051c0.005 0.648 0.008 1.413 0.008 2.18 0 16.936-1.366 33.554-3.995 49.747l0.237-1.773 108.277 84.254c5.81 4.838 9.481 12.074 9.481 20.168 0 4.522-1.146 8.776-3.163 12.488l0.068-0.138-102.418 177.063c-4.565 7.961-13.014 13.237-22.695 13.237-3.144 0-6.159-0.557-8.95-1.577l0.181 0.058-127.495-51.209c-24.949 19.48-53.421 36.308-83.951 49.225l-2.472 0.929-19.218 135.463c-1.971 12.45-12.627 21.855-25.48 21.855-0.044 0-0.088 0-0.132 0h-205.063c-0.016 0-0.035 0-0.054 0-12.748 0-23.29-9.447-25.008-21.722l-0.015-0.133-19.218-135.463c-32.996-13.954-61.458-30.773-87.301-50.809l0.878 0.655-127.495 51.209c-2.683 1.049-5.79 1.656-9.038 1.656-9.638 0-18.027-5.35-22.359-13.242l-0.067-0.132-101.89-177.063c-2.309-3.646-3.68-8.086-3.68-12.845 0-8.067 3.938-15.215 9.997-19.625l0.070-0.048 108.277-84.254c-2.793-14.924-4.529-32.238-4.801-49.907l-0.003-0.247c-0.003-0.547-0.005-1.195-0.005-1.842 0-17.054 1.366-33.79 3.993-50.103l-0.238 1.791-108.277-84.254c-5.81-4.838-9.481-12.074-9.481-20.168 0-4.522 1.146-8.776 3.163-12.488l-0.068 0.138 102.418-177.063c4.565-7.961 13.014-13.237 22.695-13.237 3.144 0 6.159 0.557 8.95 1.577l-0.181-0.058 127.495 51.209c24.949-19.48 53.421-36.308 83.951-49.225l2.472-0.929 19.804-135.522c2.139-12.405 12.765-21.741 25.592-21.854h205.082c0.108-0.002 0.235-0.003 0.363-0.003 12.68 0 23.146 9.477 24.702 21.734l0.013 0.123 19.218 135.463c33.011 13.698 61.498 30.538 87.209 50.751l-0.787-0.596 127.495-51.209c2.683-1.049 5.79-1.656 9.038-1.656 9.638 0 18.027 5.35 22.359 13.242l0.067 0.132 102.418 177.063c2.225 3.633 3.543 8.032 3.543 12.738 0 8.070-3.875 15.235-9.866 19.735l-0.064 0.046zM497.967 256.026c-105.983 0.233-191.847 86.035-192.179 191.972v0.032c0.332 105.907 86.097 191.672 191.972 192.004h0.032c105.907-0.332 191.672-86.097 192.004-191.972v-0.032c-0.331-105.825-85.963-191.539-191.725-192.004h-0.045z" />
<glyph unicode="&#xe909;" glyph-name="minus" horiz-adv-x="8320" d="M512 960h7296c282.77 0 512-229.23 512-512s-229.23-512-512-512h-7296c-282.77 0-512 229.23-512 512s229.23 512 512 512z" />
<glyph unicode="&#xe90a;" glyph-name="plus" d="M960.276 511.724h-384.551v384.551c0 35.216-28.548 63.764-63.764 63.764s-63.764-28.548-63.764-63.764v0-384.473h-384.473c-35.216 0-63.764-28.548-63.764-63.764s28.548-63.764 63.764-63.764h384.473v-384.473c0-35.216 28.548-63.764 63.764-63.764s63.764 28.548 63.764 63.764v384.473h384.473c35.216 0 63.764 28.548 63.764 63.764s-28.548 63.764-63.764 63.764v0z" />
<glyph unicode="&#xe90b;" glyph-name="shortcode_icon" horiz-adv-x="1127" d="M1059.469 960h-991.709c-37.345-0.192-67.568-30.415-67.76-67.741v-888.442c0.192-37.345 30.415-67.568 67.741-67.76h991.727c37.321 0.224 67.511 30.434 67.703 67.741v888.442c-0.192 37.325-30.382 67.536-67.682 67.76h-0.021zM855.168 846.5c0 13.822 11.205 25.027 25.027 25.027h25.027c13.822 0 25.027-11.205 25.027-25.027v0-28.375c0-13.822-11.205-25.027-25.027-25.027v0h-25.027c-13.822 0-25.027 11.205-25.027 25.027v0zM738.887 846.5c0 13.822 11.205 25.027 25.027 25.027h24.913c13.822 0 25.027-11.205 25.027-25.027v0-28.375c0-13.822-11.205-25.027-25.027-25.027v0h-25.027c-13.822 0-25.027 11.205-25.027 25.027v0zM1045.906 17.266h-964.753v700.467h964.753v-700.467zM1046.587 817.898c0.001-0.067 0.001-0.147 0.001-0.227 0-13.822-11.205-25.027-25.027-25.027-0.020 0-0.041 0-0.061 0h-24.967c-13.822 0-25.027 11.205-25.027 25.027v0 28.375c0 13.822 11.205 25.027 25.027 25.027v0h24.97c13.822 0 25.027-11.205 25.027-25.027v0zM241.926 341.139l181.317-84.331c4.358-2.077 9.472-3.29 14.869-3.29 19.463 0 35.241 15.778 35.242 35.24v0 0.908c-0.030 14.058-8.26 26.186-20.16 31.859l-0.214 0.092-113.5 52.664 113.5 52.721c12.113 5.764 20.343 17.893 20.373 31.946v0.912c-0.051 19.456-15.835 35.208-35.298 35.208-5.374 0-10.468-1.201-15.027-3.349l0.215 0.091-181.317-84.331c-12.113-5.764-20.343-17.893-20.373-31.946v-2.501c0.068-14.031 8.286-26.127 20.16-31.802l0.214-0.092zM474.942 169.357c6.477-8.776 16.762-14.419 28.367-14.471h0.916c0.021 0 0.046 0 0.070 0 15.589 0 28.807 10.155 33.399 24.211l0.070 0.248 119.175 370.068c1.060 3.205 1.672 6.894 1.672 10.726 0 19.453-15.761 35.224-35.209 35.242h-0.91c-0.021 0-0.046 0-0.070 0-15.589 0-28.807-10.155-33.399-24.211l-0.070-0.248-119.175-370.125c-1.029-3.167-1.622-6.811-1.622-10.594 0-7.837 2.546-15.079 6.855-20.945l-0.069 0.099zM653.819 458.953c0.045-14.053 8.269-26.175 20.16-31.858l0.213-0.092 113.5-52.664-113.5-52.664c-12.113-5.764-20.343-17.893-20.373-31.946v-0.912c0.001-19.463 15.779-35.24 35.242-35.24 5.397 0 10.51 1.213 15.082 3.381l-0.214-0.091 181.317 84.331c12.104 5.775 20.328 17.897 20.373 31.944v2.503c-0.030 14.058-8.26 26.186-20.16 31.859l-0.214 0.092-181.317 84.331c-4.358 2.077-9.472 3.29-14.869 3.29-19.463 0-35.241-15.778-35.242-35.24v0-0.908z" />
<glyph unicode="&#xe90c;" glyph-name="user_icon" horiz-adv-x="922" d="M819.223 857.583h-51.437v102.417h-102.189v-102.417h-409.611v102.417h-102.36v-102.417h-51.437c-56.458-0.098-102.189-45.888-102.189-102.36 0 0 0 0 0 0v0-716.806c0-0.017 0-0.037 0-0.057 0-56.532 45.828-102.36 102.36-102.36 0.020 0 0.040 0 0.060 0h716.803c56.459 0.258 102.159 45.958 102.417 102.392v716.831c-0.291 56.435-45.978 102.102-102.392 102.36h-0.025zM460.82 704.014c84.845 0 153.626-68.781 153.626-153.626s-68.781-153.626-153.626-153.626c-84.845 0-153.626 68.781-153.626 153.626v0c0 0.068 0 0.148 0 0.229 0 84.719 68.678 153.397 153.397 153.397 0.080 0 0.161 0 0.241 0h-0.012zM768.014 89.626h-614.389v51.437c0 102.417 204.777 158.712 307.194 158.712s307.194-56.295 307.194-158.712z" />
<glyph unicode="&#xe90d;" glyph-name="logo_icon" horiz-adv-x="1091" d="M1058.813 688.323c-82.24 139.523-245.821 116.424-245.821 116.424-46.983 92.578-141.378 154.97-250.371 155.222h-0.034c-182.036 0.929-240.249-89.64-290.132-158.788-13.022 2.629-27.99 4.134-43.31 4.134-126.448 0-228.954-102.506-228.954-228.954 0-5.767 0.213-11.483 0.632-17.143l-0.045 0.756c7.328-91.020 64.081-167.211 143.134-202.248l1.542-0.61s-0.33-139.104-1.318-173.528c-0.055-1.916-0.087-4.171-0.087-6.434 0-103.288 65.49-191.28 157.212-224.716l1.662-0.53c25.302-10.049 54.618-15.876 85.295-15.876 60.173 0 115.111 22.418 156.915 59.358l-0.254-0.22s73.282-85.745 222.063-50.632 177.423 200.522 177.423 200.522 0 109.054-1.858 208.851c86.994 35.794 147.125 119.893 147.125 218.036 0 42.804-11.438 82.937-31.425 117.509l0.604-1.133zM866.471 415.868s2.996-164.090-0.719-245.432-42.483-115.735-116.484-149.44-156.061 31.488-156.061 31.488l28.582 58.632c4.715-0.888 10.139-1.395 15.682-1.395 20.37 0 39.139 6.856 54.124 18.387l-0.209-0.154s71.065 106.238 96.711 144.317c13.901 38.948-27.833 24.178-27.833 24.178s-30.769-47.606-49.823-81.311c-23.459-11.744-19.774 16.867-19.774 16.867 11.339 13.927 22.439 29.461 32.552 45.674l1.123 1.932c5.992 12.433 27.114 30.769 17.586 46.138s-26.365 1.468-26.365 1.468l-53.478-81.311-19.774-1.468-1.468 19.804c19.363 23.815 37.995 50.367 54.712 78.201l1.732 3.111c4.404 28.552-27.833 17.586-27.833 17.586s-90.838-132.573-101.864-151.627 2.187-62.916 2.187-62.916l-29.96-45.419-41.015 41.015s-2.187-2.187-1.468 11.714c14.65 73.252-37.36 138.445-113.548 161.784s-114.297-53.448-61.538-140.662 124.513-73.252 124.513-73.252l46.168-52.010c-19.774-31.488-103.302-53.478-177.273-21.242s-92.306 131.135-92.306 131.135-0.719 150.908-2.996 252.023c-143.598 31.488-179.49 164.090-109.893 255.648s183.864 47.606 207.323 38.109c25.746 102.020 116.704 176.329 225.018 176.329 15.497 0 30.64-1.521 45.285-4.423l-1.473 0.243c130.416-19.055 173.768-141.411 189.017-172.15 75.469 54.917 241.747 2.996 236.683-136.258s-145.965-155.312-145.965-155.312zM390.797 446.217c-35.199 3.425-63.004 31.025-66.723 65.826l-0.028 0.325c-0.053 1.044-0.082 2.266-0.082 3.495 0 34.56 23.653 63.596 55.654 71.802l0.514 0.112c4.294 1.014 9.224 1.595 14.289 1.595 22.266 0 41.91-11.23 53.576-28.335l0.144-0.224c16.298-26.574 8.239-60.819 13.392-91.557l43.682 92.876c3.393 8.307 7.919 15.448 13.482 21.639l-0.060-0.067c4.592 5.027 11.175 8.169 18.493 8.169 1.65 0 3.263-0.16 4.824-0.465l-0.158 0.026c7.771-2.652 13.714-8.812 16.013-16.541l0.045-0.177c1.743-5.978 2.746-12.846 2.746-19.947 0-1.414-0.040-2.819-0.118-4.214l0.009 0.193v-92.606l57.433 98.868c4.7 9.567 11.213 17.574 19.151 23.859l0.143 0.109c7.455 4.335 16.406 6.893 25.955 6.893 3.419 0 6.761-0.328 9.997-0.954l-0.329 0.053c7.881-0.5 14.997-3.411 20.715-7.995l-0.072 0.056c3.499-2.986 5.703-7.4 5.703-12.329 0-2.936-0.782-5.689-2.149-8.063l0.042 0.078c-4.764-6.681-14.411-6.801-22.44-8.598-17.622-4.319-30.97-18.664-33.762-36.509l-0.032-0.252c6.342 0.344 13.766 0.54 21.236 0.54 14.404 0 28.637-0.729 42.665-2.153l-1.764 0.145c2.129-0.208 4.602-0.327 7.102-0.327 19.368 0 37.073 7.123 50.636 18.893l-0.096-0.081c8.364 8.706 13.515 20.554 13.515 33.604 0 1.809-0.099 3.594-0.292 5.351l0.019-0.217c-1.818 14.63-9.894 27.071-21.422 34.731l-0.179 0.112c-12.834 6.723-28.037 10.668-44.161 10.668-3.175 0-6.315-0.153-9.412-0.452l0.394 0.031h-375.577v36.911l368.237 0.689c3.699 0.283 8.011 0.444 12.361 0.444 21.208 0 41.52-3.832 60.283-10.84l-1.19 0.39c26.92-12.646 46.097-37.855 50.075-67.863l0.048-0.446c0.311-2.77 0.488-5.981 0.488-9.233 0-27.84-13-52.644-33.261-68.672l-0.183-0.14c-19.067-13.486-42.674-21.743-68.182-22.258l-0.126-0.002c-24.268-1.438-48.595 1.258-72.892 1.917-1.368 0.152-2.954 0.239-4.56 0.239-6.407 0-12.492-1.379-17.975-3.855l0.275 0.111c-8.372-6.164-14.657-14.726-17.878-24.667l-0.098-0.35c-10.261-22.248-21.495-41.312-34.374-59.107l0.699 1.014c-4.117-6.46-9.397-11.807-15.591-15.876l-0.198-0.122c-2.989-1.906-6.632-3.038-10.54-3.038-4.025 0-7.77 1.201-10.895 3.264l0.074-0.046c-5.008 5.342-8.084 12.547-8.084 20.471 0 1.232 0.074 2.447 0.219 3.641l-0.014-0.144q-1.079 50.932 0.539 101.864l-46.737-99.916c-5.992-12.583-19.714-35.952-36.971-26.305-3.781 2.254-6.698 5.616-8.341 9.634l-0.048 0.133c-1.915 5.207-3.022 11.22-3.022 17.492 0 0.581 0.010 1.16 0.028 1.737l-0.002-0.084-2.187 93.205c0.019 0.732 0.029 1.593 0.029 2.458 0 9.549-1.301 18.793-3.736 27.566l0.171-0.723c-2.753 9.784-9.421 17.656-18.162 21.96l-0.204 0.091c-2.597 0.83-5.585 1.308-8.685 1.308-15.36 0-27.977-11.748-29.356-26.749l-0.009-0.116c0.199-18.602 14.579-33.784 32.83-35.255l0.126-0.008z" />
<glyph unicode="&#xe90e;" glyph-name="icon1" horiz-adv-x="922" d="M716.8 396.8h-256v-256h256zM665.6 960v-102.4h-409.6v102.4h-102.4v-102.4h-51.2c-56.279-0.032-101.889-45.662-101.889-101.945 0-0.16 0-0.32 0.001-0.48v0.025l-0.512-716.8c0-56.554 45.846-102.4 102.4-102.4v0h716.8c56.489 0.161 102.239 45.911 102.4 102.385v716.815c-0.161 56.489-45.911 102.239-102.385 102.4h-51.215v102.4zM819.2 38.4h-716.8v563.2h716.8z" />
<glyph unicode="&#xe90f;" glyph-name="icon2" d="M471.337 527.754c-96.346 45.227-212.636 28.304-290.847-49.907-99.806-99.806-99.806-261.623 0-361.428s261.623-99.806 361.428 0c78.211 78.211 95.133 194.501 50.767 289.191l-0.861 1.656 131.020 131.020 120.488-120.488 120.488 120.488-120.523 120.523 60.226 60.226-120.453 120.453zM421.642 237.083c-33.262-33.262-87.191-33.262-120.453 0s-33.262 87.191 0 120.453c33.262 33.262 87.191 33.262 120.453 0v0c33.077-33.314 33.077-87.069 0.011-120.372l-0.011-0.011z" />
<glyph unicode="&#xe910;" glyph-name="icon3" horiz-adv-x="1047" d="M291.441 877.047l-75.1 75.1c-126.085-96.221-208.693-243.873-216.298-411.075l-0.043-1.19h105c8.014 139.322 79.194 260.509 185.098 336.252l1.343 0.913zM942.094 539.65h105c-8.151 168.249-90.615 315.709-215.035 411.243l-1.306 0.963-74.576-74.809c106.763-76.996 177.634-198.030 185.859-335.935l0.059-1.229zM838.664 513.414c0 161.194-86.094 296.153-236.294 331.871v35.95c0 43.501-35.264 78.765-78.765 78.765s-78.765-35.264-78.765-78.765v0-35.718c-150.723-35.718-236.294-170.153-236.294-331.871v-262.588l-105.117-105v-52.355h840.235v52.355l-105 105zM523.547-63.825c0.427-0.007 0.93-0.011 1.434-0.011 6.932 0 13.685 0.767 20.179 2.221l-0.613-0.115c34.2 7.457 61.802 30.537 75.355 61.214l0.269 0.681c4.969 11.807 7.856 25.532 7.856 39.931 0 0.278-0.001 0.555-0.003 0.832v-0.042h-210.001c0.591-57.876 47.582-104.581 105.512-104.709h0.012z" />
<glyph unicode="&#xe911;" glyph-name="icon4" horiz-adv-x="996" d="M878.811 397.875c2.052 14.783 3.224 31.863 3.224 49.218 0 0.329 0 0.658-0.001 0.987v-0.051c0.005 0.648 0.008 1.413 0.008 2.18 0 16.936-1.366 33.554-3.995 49.747l0.237-1.773 108.277 84.254c5.81 4.838 9.481 12.074 9.481 20.168 0 4.522-1.146 8.776-3.163 12.488l0.068-0.138-102.418 177.063c-4.565 7.961-13.014 13.237-22.695 13.237-3.144 0-6.159-0.557-8.95-1.577l0.181 0.058-127.495-51.209c-24.949 19.48-53.421 36.308-83.951 49.225l-2.472 0.929-19.218 135.463c-1.971 12.45-12.627 21.855-25.48 21.855-0.044 0-0.088 0-0.132 0h-205.063c-0.016 0-0.035 0-0.054 0-12.748 0-23.29-9.447-25.008-21.722l-0.015-0.133-19.218-135.463c-32.996-13.954-61.458-30.773-87.301-50.809l0.878 0.655-127.495 51.209c-2.683 1.049-5.79 1.656-9.038 1.656-9.638 0-18.027-5.35-22.359-13.242l-0.067-0.132-101.89-177.063c-2.309-3.646-3.68-8.086-3.68-12.845 0-8.067 3.938-15.215 9.997-19.625l0.070-0.048 108.277-84.254c-2.793-14.924-4.529-32.238-4.801-49.907l-0.003-0.247c-0.003-0.547-0.005-1.195-0.005-1.842 0-17.054 1.366-33.79 3.993-50.103l-0.238 1.791-108.277-84.254c-5.81-4.838-9.481-12.074-9.481-20.168 0-4.522 1.146-8.776 3.163-12.488l-0.068 0.138 102.418-177.063c4.565-7.961 13.014-13.237 22.695-13.237 3.144 0 6.159 0.557 8.95 1.577l-0.181-0.058 127.495 51.209c24.949-19.48 53.421-36.308 83.951-49.225l2.472-0.929 19.804-135.522c2.139-12.405 12.765-21.741 25.592-21.854h205.082c0.108-0.002 0.235-0.003 0.363-0.003 12.68 0 23.146 9.477 24.702 21.734l0.013 0.123 19.218 135.463c33.011 13.698 61.498 30.538 87.209 50.751l-0.787-0.596 127.495-51.209c2.683-1.049 5.79-1.656 9.038-1.656 9.638 0 18.027 5.35 22.359 13.242l0.067 0.132 102.418 177.063c2.225 3.633 3.543 8.032 3.543 12.738 0 8.070-3.875 15.235-9.866 19.735l-0.064 0.046zM497.967 256.026c-105.983 0.233-191.847 86.035-192.179 191.972v0.032c0.332 105.907 86.097 191.672 191.972 192.004h0.032c105.907-0.332 191.672-86.097 192.004-191.972v-0.032c-0.331-105.825-85.963-191.539-191.725-192.004h-0.045z" />
<glyph unicode="&#xe912;" glyph-name="shortcode_icon1" horiz-adv-x="1707" d="M631.467 55.467l-392.533 392.533 392.533 392.533-119.467 119.467-512-512 512-512zM1075.2 55.467l392.533 392.533-392.533 392.533 119.467 119.467 512-512-512-512z" />
<glyph unicode="&#xe913;" glyph-name="cart_icon" horiz-adv-x="983" d="M487.602 569.93h97.532v146.269h146.269v97.532h-146.269v146.269h-97.532v-146.269h-146.21v-97.532h146.21zM292.597 131.064c-0.017 0-0.038 0-0.059 0-53.866 0-97.532-43.667-97.532-97.532s43.667-97.532 97.532-97.532c53.866 0 97.532 43.667 97.532 97.532v0c0 0.035 0 0.076 0 0.118 0 53.801-43.614 97.414-97.414 97.414-0.021 0-0.041 0-0.062 0h0.003zM780.199 131.064c-53.866 0-97.532-43.667-97.532-97.532s43.667-97.532 97.532-97.532c53.866 0 97.532 43.667 97.532 97.532v0c0 0.035 0 0.076 0 0.118 0 53.801-43.614 97.414-97.414 97.414-0.041 0-0.083 0-0.124 0h0.006zM300.837 289.518l1.472 5.886 43.91 79.462h363.288c0.102 0 0.223-0.001 0.344-0.001 36.414 0 68.145 20.053 84.752 49.718l0.252 0.491 188.354 341.804-84.818 47.089h-0.471l-53.858-97.768-134.556-243.801h-342.334l-6.357 13.126-109.187 230.675-46.323 97.532-45.853 97.532h-159.454v-97.532h97.532l175.523-370.116-65.806-119.311c-7.666-13.326-12.187-29.303-12.187-46.336 0-0.265 0.001-0.529 0.003-0.793v0.040c0.167-53.798 43.734-97.365 97.516-97.532h585.15v97.532h-564.71c-6.73 0.099-12.152 5.562-12.184 12.299v0.003z" />
<glyph unicode="&#xe914;" glyph-name="next" horiz-adv-x="662" d="M204.8-43.52c-27.307-27.307-81.92-27.307-109.227 0l-75.093 75.093c-27.307 27.307-27.307 81.92 0 109.227l307.2 307.2-307.2 307.2c-27.307 27.307-27.307 81.92 0 109.227l75.093 75.093c27.307 27.307 81.92 27.307 109.227 0l436.907-436.907c27.307-27.307 27.307-81.92 0-109.227l-436.907-436.907z" />
<glyph unicode="&#xe915;" glyph-name="previous" horiz-adv-x="662" d="M20.48 393.387c-27.307 27.307-27.307 81.92 0 109.227l436.907 436.907c27.307 27.307 75.093 27.307 109.227 0l75.093-75.093c27.307-27.307 27.307-75.093 0-109.227l-314.027-307.2 314.027-307.2c27.307-27.307 27.307-75.093 0-109.227l-75.093-75.093c-27.307-27.307-75.093-27.307-109.227 0l-436.907 436.907z" />
<glyph unicode="&#xe916;" glyph-name="icon6" horiz-adv-x="1707" d="M631.467 55.467l-392.533 392.533 392.533 392.533-119.467 119.467-512-512 512-512zM1075.2 55.467l392.533 392.533-392.533 392.533 119.467 119.467 512-512-512-512-119.467 119.467z" />
<glyph unicode="&#xe917;" glyph-name="icon5" d="M512 960c-282.77 0-512-229.23-512-512s229.23-512 512-512c282.77 0 512 229.23 512 512v0c-0.854 282.426-229.574 511.146-511.918 512h-0.082zM727.040 232.96l-266.24 163.84v307.2h76.8v-266.24l230.4-138.541z" />
</font>
</defs>
</svg>
